Мой сайт
 
Главная » 2014 » Апрель » 17 » Скачать Приключения Маши в Стране Чудес
04:31
Скачать Приключения Маши в Стране Чудес

Приключения Маши в Стране Чудес скачать

Книга "Приключения Алисы в ...

Скачать

Размер: 745.1 МБ
Сидов: 0
Личей: неизвестно
Добавлен в базу: неизвестно
Файлы в архиве: Priklucheniya.Mashi.v.strane.chudes.2012.D.DVDRip.745MB_[New-Team]_by_avproh.avi

Страна: Китай / Синема Престиж
Жанр: мультфильм, фэнтези, приключения
Год выпуска: 2012
Продолжительность: 01:16:14
Перевод: Профессиональный (дублированный)
Cубтитры: нет
Оригинальная аудиодорожка: нет
Режиссер: Ван Юнфей / Wang Yunfei
В ролях: Лу Куи, Лью Лу, Менг Канлин
Описание: Однажды 10-летней Маше повстречалось странное существо по имени Ники — белый полулев-полутигр, появившийся на свет из волшебного камня. С этого момента с девочкой начали происходить невероятные чудеса. Она внезапно обнаружила, что понимает язык животных. А вскоре ее и Ники проглотило огромное Облако-Кит. А в очень-очень трудную минуту на помощь друзьям пришел Дядя Миша, огромный дикий медведь, на лицо ужасный, но добрый внутри. А еще они отправились в Рай Животных — фантастическую страну чудес, куда могут попасть только 99 счастливчиков — один раз в десять лет. Но людям туда вход заказан, потому что человек, пробывший там более трех дней, навсегда превратится в животное…
Качество: DVDRip / DVD5 R5
Формат: AVI
Видео: 720x400 (16:9), 25.000 fps, XviD ~ 1229 kbps avg, 0.171 bit/pixel
Аудио: 48 kHz, Dolby MP3, 2 ch, 128 kbps, русский
Раздача от:
MediaInfo
Общее
Полное имя : Priklucheniya.Mashi.v.strane.chudes.2012.D.DVDRip.745MB_[New-Team]_by_avproh.avi
Формат : AVI
Формат/Информация : Audio Video Interleave
Размер файла : 745 Мбайт
Продолжительность : 1 ч. 16 м.
Общий поток : 1366 Кбит/сек
Программа кодирования : VirtualDubMod 1.5.10.3 | www.virtualdub-fr.org || (build 2550/release)
Библиотека кодирования : VirtualDubMod build 2550/release
Видео
Идентификатор : 0
Формат : MPEG-4 Visual
Профиль формата : Advanced Simple@L5
Параметр BVOP формата : 1
Параметр QPel формата : Нет
Параметр GMC формата : Без точки перехода
Параметр матрицы формата : Выборочная
Идентификатор кодека : XVID
Идентификатор кодека/Подсказка : XviD
Продолжительность : 1 ч. 16 м.
Битрейт : 1229 Кбит/сек
Ширина : 720 пикселей
Высота : 400 пикселей
Соотношение сторон : 16:9
Частота кадров : 25,000 кадров/сек
Цветовое пространство : YUV
Субдискретизация насыщенности : 4:2:0
Битовая глубина : 8 бит
Тип развёртки : Прогрессивная
Метод сжатия : С потерями
Бит/(Пиксели*Кадры) : 0.171
Размер потока : 670 Мбайт (90%)
Библиотека кодирования : XviD 73
Аудио
Идентификатор : 1
Формат : MPEG Audio
Версия формата : Version 1
Профиль формата : Layer 3
Идентификатор кодека : 55
Идентификатор кодека/Подсказка : MP3
Продолжительность : 1 ч. 16 м.
Вид битрейта : Постоянный
Битрейт : 128 Кбит/сек
Каналы : 2 канала
Частота : 48,0 КГц
Метод сжатия : С потерями
Размер потока : 69,8 Мбайт (9%)
Выравнивание : Соединение по промежуткам
Продолжительность промежутка : 40 мс. (1,00 видеокадр)
Время предзагрузки промежутка : 504 мс.
Скриншоты:
Сравнение:
http://alt.rutor.org/torrent/288379
http://screenshotcomparison.com/comparison/69892

Алиса, скучающая на берегу реки со своей сестрой, видит спешащего Белого Кролика, держащего в лапке карманные часы. Она следует за ним в кроличью нору, и попадает в зал с множеством запертых дверей. Главная героиня находит ключ от маленькой 15-дюймовой двери, за которой виден сад, но она не может в него попасть по причине своего роста. Алиса обнаруживает различные предметы, которые увеличивают и уменьшают её рост. Поплакав, она замечает Кролика, который обронил веер и перчатки. Помахав веером, она уменьшается и попадает в море собственных слёз.
Алиса встречает , различных птиц, слушает рассказ о Вильгельме Завоевателе и для того, чтобы высохнуть, играет в Бег по кругу. Кролик просит Алису найти его вещи и посылает её в свой дом. Оставив там перчатки, Алиса выпивает странную жидкость из пузырька и вновь вырастает, едва помещаясь в жилище Кролика. Последний, пытаясь выяснить, что происходит, посылает через дымовую трубу ящерку Билля. Однако Алиса выталкивает его ногой обратно. Съев пирог, главная героиня вновь уменьшается и убегает из дома в поисках сада.
По дороге она встречает Гусеницу. Она советует ей держать себя в руках и для того, чтобы обрести свой нормальный рост, откусить кусочек гриба. Алиса следует её совету, и с ней начинают происходить различные метаморфозы — у неё то пропадают плечи, то становится длинной шея. Съев гриб, она уменьшается до 9 дюймов и видит дом. Побеседовав с Лягушонком, и войдя в здание, на кухне Алиса обнаруживает Чеширского Кота и Герцогиню, качающую младенца. Забрав ребёнка, главная героиня уходит из дома, а Герцогиня сообщает, что собирается идти на крокет.

Скачать файл через файлообменник: Скачать

Скачать через торрент: Скачать торрент

Тэги: Приключения Маши в Стране Чудес, Приключения Маши в Стране Чудес, Приключения Маши в Стране Чудес, Приключения Маши в Стране Чудес, Приключения Маши в Стране Чудес, Книга "Приключения Алисы в, Приключения Алисы в стране чудес, Книга "Приключения Алисы в, Льюис Кэрролл. Приключения, Льюис Кэрролл. Приключения

Просмотров: 37 | Добавил: defaultNick | Рейтинг: 0.0/0
Всего комментариев: 0
Имя *:
Email *:
Код *:
Суббота, 23.09.2017, 06:56
Приветствую Вас Гость
Главная | Регистрация | Вход
Форма входа
Наш опрос
Оцените мой сайт
Всего ответов: 106
Корзина
Ваша корзина пуста


CATALOG.METKA.RU
Copyright MyCorp © 2017
Бесплатный хостинг uCoz